Category Archives: Rock

Posted on by

Nov 13,  · Asa Nisi Masa: Sbrent: Counting Off Again: Strobe: referencing Twine, CD, Album, Enh, GI Excellent album and my first introduction to them! The combination of female vocals and the easy use of instruments/sounds, sometimes in a loopform, or soft experimental, s a combination which results in a laidbacklisteningalbum. But twine did /5(93). CD. Due to COVID, orders may be delayed. Thank you for your patience. Book Annex Membership Educators Gift Cards Stores & Events Help. Auto Suggestions are available once you type at least 3 letters. Use up arrow (for mozilla firefox browser alt+up arrow) and down arrow (for mozilla firefox browser alt+down arrow) to review and enter to Price: $ Find album reviews, stream songs, credits and award information for Twine - Twine on AllMusic - Find album reviews, stream songs, credits and award information for Twine - Twine on AllMusic - Asa Nisi Masa. Twine. Amazon: 8: Counting Off Again. Twine. 9/

asa nisi masa () twine. 8) sbrent () twine. 9) counting off again () twine. Twine, an Album by Twine. Released in October on Ghostly (catalog no. GI; CD). Genres: Ambient, Glitch. 7 Asa Nisi Masa CD Ghostly / GI Twine. Buy Twine CD from Twine for $ and pay no postage. Listen now for free. More than CDs, DVDs, Vinyls, Games, Technics, Equipment and Toys since at your service. free shipping. Check out Twine by Twine on Amazon Music. Stream ad-free or purchase CD's and MP3s now on ciszalarbieweivenoteleningtorlo.xyzinfo Mar 12,  · Twine - Asa Nisi Masa sheenboxable. Loading Unsubscribe from sheenboxable? Cancel Unsubscribe. Album Twine; Licensed to YouTube . Filename G:\EAC Temporare\07 Asa Nisi ciszalarbieweivenoteleningtorlo.xyzinfo Peak level % Track quality % Test CRC E3BAC79D Copy CRC E3BAC79D Track not present in AccurateRip database Copy OK Track 8 Filename G:\EAC Temporare\08 Counting Off ciszalarbieweivenoteleningtorlo.xyzinfo Peak level % Track quality % Test CRC F0DD3BA6 Copy CRC F0DD3BA6 Track not present in AccurateRip.


Sitemap

Railroad - Melanie (2) - Gather Me (CD, Album), Im Still Awake (Gray Area Mix) - Hybrid - Im Still Awake (CDr), Anal Li Alayki Meshtak, The Same Old Story - Sadside Project - Winter Whales War (CD), Asa Nisi Masa - Twine - Twine (CD, Album), Merry Widow - Charles Magnante - Accordiana (Shellac, Album)

9 thoughts on “ Asa Nisi Masa - Twine - Twine (CD, Album)

  1. Dec 05,  · Hawkeye Sings About His Super Powers (Ed Sheeran "Thinking Out Loud" Parody) - Duration: The Tonight Show Starring Jimmy Fallon Recommended for you.
  2. Find album reviews, stream songs, credits and award information for Twine - Twine on AllMusic - Find album reviews, stream songs, credits and award information for Twine - Twine on AllMusic - Asa Nisi Masa. Twine. Amazon: 8: Counting Off Again. Twine. 9/
  3. Listen to Kalea Morning, When They Drop and more from Twine. Find similar music that you'll enjoy, only at ciszalarbieweivenoteleningtorlo.xyzinfo
  4. Twine, an Album by Twine. Released in October on Ghostly (catalog no. GI; CD). Genres: Ambient, Glitch. 7 Asa Nisi Masa CD Ghostly / GI Twine.
  5. Mar 12,  · Twine - Asa Nisi Masa sheenboxable. Loading Unsubscribe from sheenboxable? Cancel Unsubscribe. Album Twine; Licensed to YouTube .
  6. Mar 23,  · View credits, reviews, tracks and shop for the CD release of Twine on Discogs/5(47).
  7. Filename G:\EAC Temporare\07 Asa Nisi ciszalarbieweivenoteleningtorlo.xyzinfo Peak level % Track quality % Test CRC E3BAC79D Copy CRC E3BAC79D Track not present in AccurateRip database Copy OK Track 8 Filename G:\EAC Temporare\08 Counting Off ciszalarbieweivenoteleningtorlo.xyzinfo Peak level % Track quality % Test CRC F0DD3BA6 Copy CRC F0DD3BA6 Track not present in AccurateRip.
  8. Check out Twine by Twine on Amazon Music. Stream ad-free or purchase CD's and MP3s now on ciszalarbieweivenoteleningtorlo.xyzinfo

Leave a comment

Your email address will not be published. Required fields are marked *